User Info

ADS

Torrent’s details
Name [PDV-042] Alice Pink File Ano Pink File Micelles In! ~ Ayana Kyoko [mkv]
  You will need to Register or Login to download!
Info Hash edee9f0778d438d766415a08822ee6892122e360
Description



Ayana Kyouko (aka Kyoko) was one of the all-time best natural large breasted JAV idols.  This Alice Japan release features her orginal debut appearances from Aug - Dec 2001.  That was just prior to her Kuki period.

Length: 117 min.

General
Unique ID                                : 84454909717443394527391333660681691266 (0x3F896C887B2179FCC22811CEF5B1E082)
Complete name                            : E:Uploads[PDV-042] Alice Pink File Ano Pink File Micelles In! ~ Ayana Kyouko [mkv].mkv
Format                                   : Matroska
Format version                           : Version 2
File size                                : 3.89 GiB
Duration                                 : 1h 57mn
Overall bit rate mode                    : Variable
Overall bit rate                         : 4 757 Kbps
Encoded date                             : UTC 2017-01-10 22:29:37
Writing application                      : MakeMKV v1.10.4 win(x64-release)
Writing library                          : libmakemkv v1.10.4 (1.3.3/1.4.4) win(x64-release)
Original source medium                   : DVD-Video

Video
ID                                       : 1
ID in the original source medium         : 224 (0xE0)
Format                                   : MPEG Video
Format version                           : Version 2
Format profile                           : Main@Main
Format settings, BVOP                    : Yes
Format settings, Matrix                  : Custom
Format settings, GOP                     : Variable
Format settings, picture structure       : Frame
Codec ID                                 : V_MPEG2
Codec ID/Info                            : MPEG 1 or 2 Video
Duration                                 : 1h 57mn
Bit rate mode                            : Variable
Bit rate                                 : 4 303 Kbps
Maximum bit rate                         : 9 800 Kbps
Width                                    : 720 pixels
Height                                   : 480 pixels
Display aspect ratio                     : 4:3
Frame rate mode                          : Constant
Frame rate                               : 29.970 (30000/1001) fps
Standard                                 : NTSC
Color space                              : YUV
Chroma subsampling                       : 4:2:0
Bit depth                                : 8 bits
Scan type                                : Interlaced
Scan order                               : Top Field First
Compression mode                         : Lossy
Bits/(Pixel*Frame)                       : 0.415
Time code of first frame                 : 01:00:35:00
Time code source                         : Group of pictures header
Stream size                              : 3.52 GiB (90%)
Language                                 : English
Default                                  : No
Forced                                   : No

Audio
ID                                       : 2
ID in the original source medium         : 189 (0xBD)-128 (0x80)
Format                                   : AC-3
Format/Info                              : Audio Coding 3
Mode extension                           : CM (complete main)
Format settings, Endianness              : Big
Codec ID                                 : A_AC3
Duration                                 : 1h 57mn
Bit rate mode                            : Constant
Bit rate                                 : 448 Kbps
Channel(s)                               : 2 channels
Channel positions                        : Front: L R
Sampling rate                            : 48.0 KHz
Frame rate                               : 31.250 fps (1536 spf)
Compression mode                         : Lossy
Stream size                              : 375 MiB (9%)
Title                                    : Stereo
Language                                 : Japanese
Default                                  : Yes
Forced                                   : No

Menu
00:00:00.000                             : en:Chapter 01
00:00:10.176                             : en:Chapter 02
00:03:10.356                             : en:Chapter 03
00:06:10.536                             : en:Chapter 04
00:09:10.716                             : en:Chapter 05
00:12:10.896                             : en:Chapter 06
00:15:11.076                             : en:Chapter 07
00:18:11.256                             : en:Chapter 08
00:21:12.371                             : en:Chapter 09
00:24:11.616                             : en:Chapter 10
00:25:43.208                             : en:Chapter 11
00:28:43.388                             : en:Chapter 12
00:31:43.568                             : en:Chapter 13
00:34:44.115                             : en:Chapter 14
00:37:43.928                             : en:Chapter 15
00:40:44.108                             : en:Chapter 16
00:43:44.288                             : en:Chapter 17
00:46:44.468                             : en:Chapter 18
00:48:49.593                             : en:Chapter 19
00:51:49.773                             : en:Chapter 20
00:54:49.953                             : en:Chapter 21
00:57:50.133                             : en:Chapter 22
01:00:50.313                             : en:Chapter 23
01:03:50.493                             : en:Chapter 24
01:06:50.673                             : en:Chapter 25
01:09:50.853                             : en:Chapter 26
01:12:51.033                             : en:Chapter 27
01:16:26.248                             : en:Chapter 28
01:19:27.095                             : en:Chapter 29
01:22:26.608                             : en:Chapter 30
01:25:26.788                             : en:Chapter 31
01:28:26.968                             : en:Chapter 32
01:31:27.248                             : en:Chapter 33
01:34:27.328                             : en:Chapter 34
01:35:46.240                             : en:Chapter 35
01:38:46.420                             : en:Chapter 36
01:41:46.600                             : en:Chapter 37
01:44:46.780                             : en:Chapter 38
01:47:46.960                             : en:Chapter 39
01:50:47.140                             : en:Chapter 40
01:53:47.320                             : en:Chapter 41
01:56:51.771                             : en:Chapter 42

IMDB No IMDB ID been added..
Category DVDRip Censored
Rating N/A
Size 3.89 GB
Show/Hide Files
1 file
AddDate 10/01/2017
Uploader ANONYMOUS
Speed 0 KB/sec
Down 82 times
peers seeds: 3, leechers: 0 = 3 peers
Who thanked
Report
Reseed


No comments...




ADS