User Info

ADS

Torrent’s details
Name [AUKG-334] Yosoji Wife That Fits In Lesbian Circles [mp4]
  You will need to Register or Login to download!
Info Hash e963c6ac15981a9528a9b5227b207624463c691e
Description






Code
General
Complete name               : AUKG-334 Ayako Inoue, Rie Nishina, Rion Ichijo
Format                      : MPEG-4
Format profile              : Base Media / Version 2
Codec ID                    : mp42 (isom/mp42)
File size                   : 1.55 GiB
Duration                    : 2 h 12 min
Overall bit rate mode       : Variable
Overall bit rate            : 1 679 kb/s
Encoded date                : UTC 2016-11-12 15:34:42
Tagged date                 : UTC 2016-11-12 15:34:42
gsst                        : 0
gstd                        : 7944428

Video
ID                          : 1
Format                      : AVC
Format/Info                 : Advanced Video Codec
Format profile              : High@L3.1
Format settings             : CABAC / 1 Ref Frames
Format settings, CABAC      : Yes
Format settings, ReFrames   : 1 frame
Codec ID                    : avc1
Codec ID/Info               : Advanced Video Coding
Duration                    : 2 h 12 min
Bit rate                    : 1 484 kb/s
Maximum bit rate            : 5 933 kb/s
Width                       : 1 280 pixels
Height                      : 720 pixels
Display aspect ratio        : 16:9
Frame rate mode             : Constant
Frame rate                  : 29.970 (30000/1001) FPS
Color space                 : YUV
Chroma subsampling          : 4:2:0
Bit depth                   : 8 bits
Scan type                   : Progressive
Bits/(Pixel*Frame)          : 0.054
Stream size                 : 1.37 GiB (88%)
Tagged date                 : UTC 2016-11-12 15:36:02
Color range                 : Limited
Color primaries             : BT.709
Transfer characteristics    : BT.709
Matrix coefficients         : BT.709

Audio
ID                          : 2
Format                      : AAC
Format/Info                 : Advanced Audio Codec
Format profile              : LC
Codec ID                    : mp4a-40-2
Duration                    : 2 h 12 min
Bit rate mode               : Variable
Bit rate                    : 192 kb/s
Maximum bit rate            : 206 kb/s
Channel(s)                  : 2 channels
Channel positions           : Front: L R
Sampling rate               : 44.1 kHz
Frame rate                  : 43.066 FPS (1024 SPF)
Compression mode            : Lossy
Stream size                 : 182 MiB (11%)
Title                       : IsoMedia File Produced by Google, 5-11-2011
Encoded date                : UTC 2016-11-12 15:35:31
Tagged date                 : UTC 2016-11-12 15:36:02


Porn Star Cast: Ayako Inoue, Rie Nishina, Rion Ichijo
IMDB No IMDB ID been added..
Category HD Censored
Rating N/A
Size 1.55 GB
Show/Hide Files
2 files
AddDate 12/02/2018
Uploader ANONYMOUS
Speed 0 KB/sec
Down 105 times
peers seeds: 28, leechers: 0 = 28 peers
Who thanked
Report
Reseed


No comments...




ADS