User Info

ADS

Torrent’s details
Name Pacopacomama 060317 099 Hitomi Ohashi
  You will need to Register or Login to download!
Info Hash bab30f07b2823c1704c56883d24a7de661291190
Description



Dont forget to seed!!!cool2.gif


Code
General
Complete name               : Pacopacomama 060317 099 Hitomi Ohashi.mp4
Format                      : MPEG-4
Format profile              : Base Media
Codec ID                    : isom (isom/iso2/avc1/mp41)
File size                   : 1.64 GiB
Duration                    : 57 min 38 s
Overall bit rate            : 4 077 kb/s
Encoded date                : UTC 2017-04-03 16:20:24
Tagged date                 : UTC 2017-04-03 16:20:24
Writing application         : Lavf54.6.100

Video
ID                          : 1
Format                      : AVC
Format/Info                 : Advanced Video Codec
Format profile              : High@L4.1
Format settings             : CABAC / 4 Ref Frames
Format settings, CABAC      : Yes
Format settings, ReFrames   : 4 frames
Codec ID                    : avc1
Codec ID/Info               : Advanced Video Coding
Duration                    : 57 min 38 s
Bit rate                    : 4 000 kb/s
Width                       : 1 920 pixels
Height                      : 1 080 pixels
Display aspect ratio        : 16:9
Frame rate mode             : Constant
Frame rate                  : 59.940 (59940/1000) FPS
Color space                 : YUV
Chroma subsampling          : 4:2:0
Bit depth                   : 8 bits
Scan type                   : Progressive
Bits/(Pixel*Frame)          : 0.032
Stream size                 : 1.61 GiB (98%)
Writing library             : x264 core 142
Encoding settings           : cabac=1 / ref=4 / deblock=1:0:0 / analyse=0x3:0x133 / me=umh / subme=10 / psy=1 / psy_rd=1.00:0.00 / mixed_ref=1 / me_range=24 / chroma_me=1 / trellis=2 / 8x8dct=1 / cqm=0 / deadzone=21,11 / fast_pskip=1 / chroma_qp_offset=-2 / threads=12 / lookahead_threads=2 / sliced_threads=0 / nr=0 / decimate=1 / interlaced=0 / bluray_compat=0 / constrained_intra=0 / bframes=8 / b_pyramid=2 / b_adapt=2 / b_bias=0 / direct=3 / weightb=1 / open_gop=0 / weightp=2 / keyint=250 / keyint_min=25 / scenecut=40 / intra_refresh=0 / rc_lookahead=60 / rc=2pass / mbtree=1 / bitrate=4000 / ratetol=1.0 / qcomp=0.60 / qpmin=0 / qpmax=69 / qpstep=4 / cplxblur=20.0 / qblur=0.5 / ip_ratio=1.40 / aq=1:1.00
Encoded date                : UTC 2017-04-03 16:20:24
Tagged date                 : UTC 2017-04-03 16:20:24

Audio
ID                          : 2
Format                      : AAC
Format/Info                 : Advanced Audio Codec
Format profile              : LC
Codec ID                    : mp4a-40-2
Duration                    : 57 min 38 s
Bit rate mode               : Constant
Bit rate                    : 64.0 kb/s
Channel(s)                  : 2 channels
Channel positions           : Front: L R
Sampling rate               : 48.0 kHz
Frame rate                  : 46.875 FPS (1024 SPF)
Compression mode            : Lossy
Stream size                 : 26.4 MiB (2%)
Default                     : Yes
Alternate group             : 1
Encoded date                : UTC 2017-04-03 16:20:24
Tagged date                 : UTC 2017-04-03 16:20:24


Porn Star Cast: Hitomi Ohashi
IMDB No IMDB ID been added..
Category HD 1080p
Rating
Size 1.64 GB
Show/Hide Files
2 files
AddDate 07/01/2018
Uploader ANONYMOUS
Speed 0 KB/sec
Down 188 times
peers seeds: 32, leechers: 0 = 32 peers
Who thanked
Report
Reseed


No comments...




ADS