User Info

ADS

Torrent’s details
Name [AUKS-057] Berokisu Obscenity Lesbian SEX INSTRUCTOR [mp4]
  You will need to Register or Login to download!
Info Hash a10ee5d1e3c03d1a39b89b142425051ee66ac982
Description






Code
General
Complete name               : AUKS-057 Berokisu Obscenity Lesbian ~ SEX INSTRUCTOR
Format                      : MPEG-4
Format profile              : Base Media
Codec ID                    : isom (isom/iso2/avc1/mp41)
File size                   : 2.05 GiB
Duration                    : 2 h 37 min
Overall bit rate            : 1 865 kb/s
Writing application         : Lavf57.75.100

Video
ID                          : 1
Format                      : AVC
Format/Info                 : Advanced Video Codec
Format profile              : Main@L3.1
Format settings             : CABAC / 4 Ref Frames
Format settings, CABAC      : Yes
Format settings, ReFrames   : 4 frames
Codec ID                    : avc1
Codec ID/Info               : Advanced Video Coding
Duration                    : 2 h 37 min
Bit rate                    : 1 797 kb/s
Width                       : 1 280 pixels
Height                      : 720 pixels
Display aspect ratio        : 16:9
Frame rate mode             : Constant
Frame rate                  : 30.000 FPS
Color space                 : YUV
Chroma subsampling          : 4:2:0
Bit depth                   : 8 bits
Scan type                   : Progressive
Bits/(Pixel*Frame)          : 0.065
Stream size                 : 1.97 GiB (96%)
Writing library             : x264 core 152 r2851 ba24899
Encoding settings           : cabac=1 / ref=3 / deblock=1:-2:-2 / analyse=0x1:0x111 / me=hex / subme=7 / psy=1 / psy_rd=1.00:0.25 / mixed_ref=1 / me_range=16 / chroma_me=1 / trellis=1 / 8x8dct=0 / cqm=0 / deadzone=6,6 / fast_pskip=1 / chroma_qp_offset=-4 / threads=8 / lookahead_threads=1 / sliced_threads=0 / nr=0 / decimate=0 / interlaced=0 / bluray_compat=0 / constrained_intra=0 / bframes=3 / b_pyramid=2 / b_adapt=1 / b_bias=0 / direct=1 / weightb=1 / open_gop=0 / weightp=2 / keyint=250 / keyint_min=50 / scenecut=40 / intra_refresh=0 / rc_lookahead=40 / rc=crf / mbtree=1 / crf=20.0 / qcomp=0.80 / qpmin=0 / qpmax=69 / qpstep=4 / vbv_maxrate=1800 / vbv_bufsize=3600 / crf_max=0.0 / nal_hrd=none / filler=0 / ip_ratio=1.10 / aq=1:0.50
Tagged date                 : UTC 2017-12-23 03:35:29

Audio
ID                          : 2
Format                      : AAC
Format/Info                 : Advanced Audio Codec
Format profile              : LC
Codec ID                    : mp4a-40-2
Duration                    : 2 h 37 min
Source duration             : 2 h 37 min
Source_Duration_LastFrame   : -8 ms
Bit rate mode               : Constant
Bit rate                    : 64.0 kb/s
Channel(s)                  : 2 channels
Channel(s)_Original         : 1 channel
Channel positions           : Front: C
Sampling rate               : 24.0 kHz
Frame rate                  : 23.438 FPS (1024 SPF)
Compression mode            : Lossy
Stream size                 : 71.9 MiB (3%)
Source stream size          : 71.9 MiB (3%)
Default                     : Yes
Alternate group             : 1
Tagged date                 : UTC 2017-12-23 03:35:29


Porn Star Cast: Sakuragi Emika, Uchimura Rina
IMDB No IMDB ID been added..
Category HD Censored
Rating
Size 2.05 GB
Show/Hide Files
2 files
AddDate 11/02/2018
Uploader ANONYMOUS
Speed 0 KB/sec
Down 97 times
peers seeds: 23, leechers: 0 = 23 peers
Who thanked
Report
Reseed


11/02/2018 02.18 pm

Great sharing. grin.gif




ADS