User Info

ADS

Torrent’s details
Name 1Pondo 101513 679 Drama Collection ~ Yuuka Wakatsuki [mp4]
  You will need to Register or Login to download!
Info Hash 6e24eb771a8ce3f2431d4ede693e13f659b93166
Description






Code
General
Complete name               : 1Pondo 101513 679
Format                      : MPEG-4
Format profile              : Base Media / Version 2
Codec ID                    : mp42 (isom/mp42)
File size                   : 759 MiB
Duration                    : 1 h 1 min
Overall bit rate mode       : Variable
Overall bit rate            : 1 717 kb/s
Encoded date                : UTC 2015-10-19 05:01:22
Tagged date                 : UTC 2015-10-19 05:01:22
gsst                        : 0
gstd                        : 3709526

Video
ID                          : 1
Format                      : AVC
Format/Info                 : Advanced Video Codec
Format profile              : High@L3.1
Format settings             : CABAC / 1 Ref Frames
Format settings, CABAC      : Yes
Format settings, ReFrames   : 1 frame
Format settings, GOP        : M=1, N=60
Codec ID                    : avc1
Codec ID/Info               : Advanced Video Coding
Duration                    : 1 h 1 min
Bit rate                    : 1 523 kb/s
Maximum bit rate            : 4 381 kb/s
Width                       : 1 280 pixels
Height                      : 720 pixels
Display aspect ratio        : 16:9
Frame rate mode             : Constant
Frame rate                  : 29.970 (30000/1001) FPS
Color space                 : YUV
Chroma subsampling          : 4:2:0
Bit depth                   : 8 bits
Scan type                   : Progressive
Bits/(Pixel*Frame)          : 0.055
Stream size                 : 673 MiB (89%)
Tagged date                 : UTC 2015-10-19 05:02:35

Audio
ID                          : 2
Format                      : AAC
Format/Info                 : Advanced Audio Codec
Format profile              : LC
Codec ID                    : mp4a-40-2
Duration                    : 1 h 1 min
Bit rate mode               : Variable
Bit rate                    : 192 kb/s
Maximum bit rate            : 201 kb/s
Channel(s)                  : 2 channels
Channel positions           : Front: L R
Sampling rate               : 44.1 kHz
Frame rate                  : 43.066 FPS (1024 SPF)
Compression mode            : Lossy
Stream size                 : 84.9 MiB (11%)
Title                       : IsoMedia File Produced by Google, 5-11-2011
Encoded date                : UTC 2015-10-19 05:01:58
Tagged date                 : UTC 2015-10-19 05:02:35


Porn Star Cast: Yuuka Wakatsuki
IMDB No IMDB ID been added..
Category HD 720p
Rating N/A
Size 759.47 MB
Show/Hide Files
2 files
AddDate 10/02/2018
Uploader ANONYMOUS
Speed 0 KB/sec
Down 259 times
peers seeds: 40, leechers: 0 = 40 peers
Who thanked
Report
Reseed


No comments...




ADS