User Info

ADS

Torrent’s details
Name STAR-631 Transformation Berokisu Estrus SEX Furukawa Iori Kiss Poisoning
  You will need to Register or Login to download!
Info Hash 4e9402e4b30b5af0046426f09fdf5d060fe4297e
Description

HighRes Screenshot, Please Click and Zoom.

Media Info
Spoiler:show

  General
     Format : MPEG-4
     Format profile : Base Media
     Codec ID : isom (mp41)
     File size : 5.07 GiB
     Duration : 2 h 6 min
     Overall bit rate mode : Variable
     Overall bit rate : 5 740 kb/s
     Encoded date : UTC 2015-11-12 02:56:15
     Tagged date : UTC 2015-11-12 02:56:15
     Writing application : BandiMp4Muxer 1.0
  Video #1
     ID : 1
     Format : AVC
     Format/Info : Advanced Video Codec
     Format profile : Main@L4.2
     Format settings, CABAC : Yes
     Format settings, ReFrames : 1 frame
     Codec ID : avc1
     Codec ID/Info : Advanced Video Coding
     Duration : 2 h 6 min
     Bit rate : 5 536 kb/s
     Width : 1 920 pixels
     Height : 1 080 pixels
     Display aspect ratio : 16:9
     Frame rate mode : Variable
     Frame rate : 30.270 FPS
     Minimum frame rate : 12.000 FPS
     Maximum frame rate : 60.060 FPS
     Original frame rate : 60.000 FPS
     Color space : YUV
     Chroma subsampling : 4:2:0
     Bit depth : 8 bits
     Scan type : Progressive
     Bits/(Pixel*Frame) : 0.088
     Stream size : 4.89 GiB (96%)
     Language : English
     Encoded date : UTC 2015-11-12 02:56:15
     Tagged date : UTC 2015-11-12 02:56:15
  Audio #2
     ID : 2
     Format : AAC
     Format/Info : Advanced Audio Codec
     Format profile : LC
     Codec ID : 40
     Duration : 2 h 6 min
     Bit rate mode : Variable
     Bit rate : 192 kb/s
     Maximum bit rate : 340 kb/s
     Channel(s) : 2 channels
     Channel positions : Front: L R
     Sampling rate : 48.0 kHz
     Frame rate : 46.875 FPS (1024 spf)
     Compression mode : Lossy
     Stream size : 176 MiB (3%)
     Language : English
     Encoded date : UTC 2015-11-12 02:56:15
     Tagged date : UTC 2015-11-12 02:56:15


Library
http://www.javlibrary.com/en/?v=javlilbn5y

smile1.gifsmile1.gif
IMDB No IMDB ID been added..
Category HD Censored
Rating
Size 9.56 GB
Show/Hide Files
4 files
AddDate 09/02/2017
Uploader ANONYMOUS
Speed 0 KB/sec
Down 256 times
peers seeds: 3, leechers: 0 = 3 peers
Who thanked
Report
Reseed


10/02/2017 04.59 am

smile1.gif Thnx. She is beautiful especially when she is suckingtongue.gif




ADS