User Info

ADS

Torrent’s details
Name [AVOP062] Kingdom Of The Wild Special Edition Bareback Sex And Creampies With African Natives AIKA
  You will need to Register or Login to download!
Info Hash 715cdcb9706be55f2663f32805365871323032ff
Description



Dont forget to seed!!!cool2.gif


Code
General
Complete name               : [AVOP062] Kingdom Of The Wild Special Edition Bareback Sex And Creampies With African Natives AIKA.MP4
Format                      : MPEG-4
Format profile              : Base Media / Version 2
Codec ID                    : mp42 (isom/iso2/avc1/mp41)
File size                   : 2.22 GiB
Duration                    : 3 h 25 min
Overall bit rate mode       : Variable
Overall bit rate            : 1 548 kb/s
Encoded date                : UTC 2016-02-24 22:42:47
Tagged date                 : UTC 2016-02-24 22:42:47
Writing application         : HandBrake 0.10.5 2016021100

Video
ID                          : 1
Format                      : AVC
Format/Info                 : Advanced Video Codec
Format profile              : High@L3.1
Format settings             : CABAC / 4 Ref Frames
Format settings, CABAC      : Yes
Format settings, RefFrames  : 4 frames
Codec ID                    : avc1
Codec ID/Info               : Advanced Video Coding
Duration                    : 3 h 25 min
Bit rate                    : 1 280 kb/s
Width                       : 1 280 pixels
Height                      : 720 pixels
Display aspect ratio        : 16:9
Frame rate mode             : Variable
Frame rate                  : 29.970 FPS
Minimum frame rate          : 29.412 FPS
Maximum frame rate          : 30.303 FPS
Color space                 : YUV
Chroma subsampling          : 4:2:0
Bit depth                   : 8 bits
Scan type                   : Progressive
Bits/(Pixel*Frame)          : 0.046
Stream size                 : 1.84 GiB (83%)
Writing library             : x264 core 142 r2491 24e4fed
Encoding settings           : cabac=1 / ref=3 / deblock=1:0:0 / analyse=0x3:0x113 / me=hex / subme=7 / psy=1 / psy_rd=1.00:0.00 / mixed_ref=1 / me_range=16 / chroma_me=1 / trellis=1 / 8x8dct=1 / cqm=0 / deadzone=21,11 / fast_pskip=1 / chroma_qp_offset=-2 / threads=12 / lookahead_threads=2 / sliced_threads=0 / nr=0 / decimate=1 / interlaced=0 / bluray_compat=0 / constrained_intra=0 / bframes=3 / b_pyramid=2 / b_adapt=1 / b_bias=0 / direct=1 / weightb=1 / open_gop=0 / weightp=2 / keyint=300 / keyint_min=30 / scenecut=40 / intra_refresh=0 / rc_lookahead=40 / rc=abr / mbtree=1 / bitrate=1280 / ratetol=1.0 / qcomp=0.60 / qpmin=0 / qpmax=69 / qpstep=4 / vbv_maxrate=17500 / vbv_bufsize=17500 / nal_hrd=none / filler=0 / ip_ratio=1.40 / aq=1:1.00
Encoded date                : UTC 2016-02-24 22:42:47
Tagged date                 : UTC 2016-02-24 22:42:47
Color range                 : Limited
Color primaries             : BT.709
Transfer characteristics    : BT.709
Matrix coefficients         : BT.709

Audio
ID                          : 2
Format                      : AAC
Format/Info                 : Advanced Audio Codec
Format profile              : LC
Codec ID                    : mp4a-40-2
Duration                    : 3 h 25 min
Bit rate mode               : Variable
Bit rate                    : 256 kb/s
Channel(s)                  : 2 channels
Channel positions           : Front: L R
Sampling rate               : 44.1 kHz
Frame rate                  : 43.066 FPS (1024 SPF)
Compression mode            : Lossy
Stream size                 : 375 MiB (17%)
Title                       : Stereo / Stereo
Default                     : Yes
Alternate group             : 1
Encoded date                : UTC 2016-02-24 22:42:47
Tagged date                 : UTC 2016-02-24 22:42:47


Porn Star Cast: AIKA
IMDB No IMDB ID been added..
Category HD Censored
Rating N/A
Size 2.22 GB
Show/Hide Files
2 files
AddDate 26/10/2017
Uploader ANONYMOUS
Speed 0 KB/sec
Down 892 times
peers seeds: 74, leechers: 2 = 76 peers
Who thanked
Report
Reseed


28/10/2017 01.14 am

to addamit33, yes I do have some videos of this and I posted them soon.
27/10/2017 08.23 am

Please , Upload more like this torrent combined with asain & african sex




ADS