User Info

ADS

Torrent’s details
Name [heyzo0171]Hamar's World~Suzu Minamoto [mp4]
  You will need to Register or Login to download!
Info Hash 338b5a8b28507c7563a1dc92f35dee60a847925f
Description


Code
Format                                   : MPEG-4
Format profile                           : Base Media
Codec ID                                 : isom (isom/iso2/avc1/mp41)
File size                                : 1.65 GiB
Duration                                 : 45 min 35 s
Overall bit rate                         : 5 186 kb/s
Movie name                               : Hamar's World2 後編~濃厚2連発~
Performer                                : 源すず
Genre                                    : AV女優
Encoded date                             : UTC 2012-09-18 13:56:47
Tagged date                              : UTC 2012-09-18 13:56:47
Writing application                      : Lavf54.6.100
Comment                                  : 今回の撮影も終わりに近づき、2度と会うこともないだろう二人はお互いに寂しさをかみしめつつ彼女の自宅へ車を走らせる。ラブホテルに入り最後の性交。回数を重ねるたびにより激しく求め合う2人。カメラを見ながら、自らのイヤらしい姿に更に興奮する彼女。突っ込まれながら乳首を舐められ、クリトリスを刺激されるのがお気に入りの彼女。痙攣しながらイッてる膣に我慢できず突っ込み、騎乗位での濃厚中出しセックスでフィニッシュ。「素顔の源すず」をお楽しみいただける作品に仕上がりました。

Video
ID                                       : 1
Format                                   : AVC
Format/Info                              : Advanced Video Codec
Format profile                           : High@L4
Format settings, CABAC                   : Yes
Format settings, ReFrames                : 4 frames
Codec ID                                 : avc1
Codec ID/Info                            : Advanced Video Coding
Duration                                 : 45 min 35 s
Bit rate                                 : 5 000 kb/s
Width                                    : 1 920 pixels
Height                                   : 1 080 pixels
Display aspect ratio                     : 16:9
Frame rate mode                          : Constant
Frame rate                               : 29.970 (29970/1000) FPS
Color space                              : YUV
Chroma subsampling                       : 4:2:0
Bit depth                                : 8 bits
Scan type                                : Progressive
Bits/(Pixel*Frame)                       : 0.080
Stream size                              : 1.59 GiB (96%)
Writing library                          : x264 core 88 r1471 1144615
Encoding settings                        : cabac=1 / ref=3 / deblock=1:0:0 / analyse=0x3:0x113 / me=hex / subme=7 / psy=1 / psy_rd=1.00:0.00 / mixed_ref=1 / me_range=16 / chroma_me=1 / trellis=1 / 8x8dct=1 / cqm=0 / deadzone=21,11 / fast_pskip=1 / chroma_qp_offset=-2 / threads=18 / sliced_threads=0 / nr=0 / decimate=1 / mbaff=0 / constrained_intra=0 / bframes=3 / b_pyramid=2 / b_adapt=1 / b_bias=0 / direct=1 / wpredb=1 / wpredp=2 / keyint=250 / keyint_min=25 / scenecut=40 / intra_refresh=0 / rc_lookahead=40 / rc=2pass / mbtree=1 / bitrate=5000 / ratetol=1.0 / qcomp=0.60 / qpmin=10 / qpmax=51 / qpstep=4 / cplxblur=20.0 / qblur=0.5 / ip_ratio=1.40 / aq=1:1.00
Encoded date                             : UTC 2012-09-18 13:56:47
Tagged date                              : UTC 2012-09-18 13:56:47

Audio
ID                                       : 2
Format                                   : AAC
Format/Info                              : Advanced Audio Codec
Format profile                           : LC
Codec ID                                 : 40
Duration                                 : 45 min 35 s
Duration_LastFrame                       : -11 ms
Bit rate mode                            : Constant
Bit rate                                 : 186 kb/s
Channel(s)                               : 2 channels
Channel positions                        : Front: L R
Sampling rate                            : 48.0 kHz
Frame rate                               : 46.875 FPS (1024 spf)
Compression mode                         : Lossy
Stream size                              : 60.8 MiB (4%)
Default                                  : Yes
Alternate group                          : 1
Encoded date                             : UTC 2012-09-18 13:56:47
Tagged date                              : UTC 2012-09-18 13:56:47




IMDB No IMDB ID been added..
Category HD 1080p
Rating N/A
Size 1.65 GB
Show/Hide Files
1 file
AddDate 13/04/2017
Uploader ANONYMOUS
Speed 0 KB/sec
Down 883 times
peers seeds: 60, leechers: 2 = 62 peers
Who thanked
Report
Reseed


14/05/2017 06.08 am

Thanks! But the guy in this video talk to her like she's a little kid, very irritating.
15/04/2017 12.33 am

bbnmbmnbmnbmbmnb
kjhjj noexpression.gifnoexpression.gifnoexpression.gifnoexpression.gif




ADS