User Info

ADS

Torrent’s details
Name Caribbeancom SiteRip Oktobe_2013_February_2014
  You will need to Register or Login to download!
Info Hash 0ca290819a3eeb6eded4b16c1704a7f5e8ccb959
Description





















General
Complete name                            : Egrin.gifownloadCarribeancomFebruaryCaribbeancom  022514-550  RYU.mp4
Format                                   : MPEG-4
Format profile                           : Base Media
Codec ID                                 : isom
File size                                : 1.85 GiB
Duration                                 : 51mn 1s
Overall bit rate mode                    : Variable
Overall bit rate                         : 5 182 Kbps
Encoded date                             : UTC 2014-02-05 01:48:13
Tagged date                              : UTC 2014-02-05 01:48:13
Writing application                      : Lavf54.6.100

Video
ID                                       : 1
Format                                   : AVC
Format/Info                              : Advanced Video Codec
Format profile                           : High@L4.2
Format settings, CABAC                   : Yes
Format settings, ReFrames                : 4 frames
Codec ID                                 : avc1
Codec ID/Info                            : Advanced Video Coding
Duration                                 : 51mn 1s
Bit rate                                 : 5 000 Kbps
Width                                    : 1 920 pixels
Height                                   : 1 080 pixels
Display aspect ratio                     : 16:9
Frame rate mode                          : Constant
Frame rate                               : 29.970 fps
Color space                              : YUV
Chroma subsampling                       : 4:2:0
Bit depth                                : 8 bits
Scan type                                : Progressive
Bits/(Pixel*Frame)                       : 0.080
Stream size                              : 1.78 GiB (96%)
Writing library                          : x264 core 129
Encoding settings                        : cabac=1 / ref=3 / deblock=1:0:0 / analyse=0x3:0x113 / me=hex / subme=7 / psy=1 / psy_rd=1.00:0.00 / mixed_ref=1 / me_range=16 / chroma_me=1 / trellis=1 / 8x8dct=1 / cqm=0 / deadzone=21,11 / fast_pskip=1 / chroma_qp_offset=-2 / threads=18 / lookahead_threads=3 / sliced_threads=0 / nr=0 / decimate=1 / interlaced=0 / bluray_compat=0 / constrained_intra=0 / bframes=3 / b_pyramid=2 / b_adapt=1 / b_bias=0 / direct=1 / weightb=1 / open_gop=0 / weightp=2 / keyint=250 / keyint_min=25 / scenecut=40 / intra_refresh=0 / rc_lookahead=40 / rc=2pass / mbtree=1 / bitrate=5000 / ratetol=1.0 / qcomp=0.60 / qpmin=0 / qpmax=69 / qpstep=4 / cplxblur=20.0 / qblur=0.5 / ip_ratio=1.40 / aq=1:1.00
Encoded date                             : UTC 2014-02-05 01:48:13
Tagged date                              : UTC 2014-02-05 01:48:13

Audio
ID                                       : 2
Format                                   : AAC
Format/Info                              : Advanced Audio Codec
Format profile                           : LC
Codec ID                                 : 40
Duration                                 : 51mn 1s
Bit rate mode                            : Variable
Bit rate                                 : 174 Kbps
Maximum bit rate                         : 192 Kbps
Channel(s)                               : 2 channels
Channel positions                        : Front: L R
Sampling rate                            : 48.0 KHz
Compression mode                         : Lossy
Stream size                              : 63.5 MiB (3%)
Encoded date                             : UTC 2014-02-05 01:48:13
Tagged date                              : UTC 2014-02-05 01:48:13
IMDB No IMDB ID been added..
Category HD 1080p
Rating
Size 329.49 GB
Show/Hide Files
300 files
AddDate 15/03/2014
Uploader ANONYMOUS
Speed 0 KB/sec
Down 1700 times
peers seeds: 15, leechers: 7 = 22 peers
Who thanked
Report
Reseed


05/10/2016 01.33 am

Gracias por compartilhar!
Tanks!
14/02/2016 06.37 am

very thank you much~
11/01/2016 07.32 am

Thanks!
30/12/2015 03.03 pm

Many thanks smile1.gif
09/11/2015 07.09 am

ty
13/10/2015 07.46 pm

oh my......goshhhh
ohmy.gif
07/10/2015 04.14 pm

December/Caribbeancom 122413-506 White Paper Pies  Yukina Momota.mp4 is broken/empty
03/07/2015 09.18 am

Thankss...you...tuyệt vời.
10/06/2015 08.03 pm

whats the name of the girl, second to the last. the one wearing a diamond necklace and white top. thanks
03/06/2015 09.46 pm

thank you
13/05/2015 06.26 pm

thank you smile2.gif
18/03/2015 11.45 am

qua tuyet voi....thanksss
25/12/2014 03.05 am

your the man .....
09/12/2014 09.47 am

thanks you all, fantastic smile2.gif
30/11/2014 10.39 pm

OMG, i need much time and internet quota.... expensive on my countryangry.gif
11/11/2014 01.55 pm

Holly shit man holly shit....
12/08/2014 09.06 am

OMG Great collection..
I need to buy new internal disk.
20/03/2014 04.50 am

Keep posting these siterips and my internet provider is gonna look askance my direction....
19/03/2014 01.02 pm

@vandebay no luck in that price for me.

Its around 260SGD for this: http://list.qoo10.sg/item/SEAGATE-EXTERNAL-HARDDISK-4TB-USB/410815590
18/03/2014 08.57 pm

Where do you guys live? I bought a brand new Seagate 4TB external hard drive from ebay via buydig.com for $129.99. If you are willing to fork out more than $100 for a 2TB... whoa you must be very rich. ohmy.gif
18/03/2014 08.50 pm

Finally got the Gold Disk ... Only took 3 DAYS (and reporting the torrent to the moderators) before they acted!
16/03/2014 10.56 am

A) Why do you need a 2TB hard Drive for a 330GB torrent?? wacko.gif  A 1TB or 500GB would work just as well!
Another thing, Which country are you in?? ... Why did it cost $200?? A WD Green 2TB SATA3 HDD costs AU$94 RETAIL (~ US$85, or 61 Euros). For $190 I can get a 4TB drive!

B) Why doesn't this torrent have a Gold Disc yet?? angry.gif  It's 330GB ... the Gold Disc is SUPPOSED to be AUTOMATIC for torrents bigger than 15GB ... this is 22 times bigger than that! shit.gif
16/03/2014 03.50 am

This torrent cost me almost $200 because I need to buy a new 2TB hard drive just for this one torrent!grin.gif
15/03/2014 08.24 am

You are a god among asian porn addicts! I nearly came at the pics of Maya Otsuka's furry bush.




ADS