User Info

ADS

Torrent’s details
Name YoungFilipina A nervous Debut with hairless young innocent pussy and super cute little tits 720p
  You will need to Register or Login to download!
Info Hash 01e4759e28d9d818b4a240f0487a537c11a68e9c
Description





Format                                   : Windows Media
File size                                : 775 MiB
Duration                                 : 20mn 34s
Overall bit rate mode                    : Constant
Overall bit rate                         : 5 266 Kbps
Maximum Overall bit rate                 : 5 285 Kbps
Encoded date                             : UTC 2012-02-13 03:36:29.210
SfOriginalFPS                            : 250000

Video
ID                                       : 2
Format                                   : VC-1
Format profile                           : MP@HL
Codec ID                                 : WMV3
Codec ID/Info                            : Windows Media Video 9
Codec ID/Hint                            : WMV3
Description of the codec                 : Windows Media Video 9 - Professional
Duration                                 : 20mn 34s
Bit rate mode                            : Constant
Bit rate                                 : 5 051 Kbps
Width                                    : 1 280 pixels
Height                                   : 720 pixels
Display aspect ratio                     : 16:9
Frame rate                               : 25.000 fps
Color space                              : YUV
Chroma subsampling                       : 4:2:0
Bit depth                                : 8 bits
Scan type                                : Progressive
Compression mode                         : Lossy
Bits/(Pixel*Frame)                       : 0.219
Stream size                              : 743 MiB (96%)
Language                                 : English (US)

Audio
ID                                       : 1
Format                                   : WMA
Format version                           : Version 2
Codec ID                                 : 161
Codec ID/Info                            : Windows Media Audio
Description of the codec                 : Windows Media Audio 9.2 - 192 kbps, 48 kHz, stereo (A/V) 1-pass CBR
Duration                                 : 20mn 34s
Bit rate mode                            : Constant
Bit rate                                 : 192 Kbps
Channel(s)                               : 2 channels
Sampling rate                            : 48.0 KHz
Bit depth                                : 16 bits
Stream size                              : 28.3 MiB (4%)
Language                                 : English (US)
IMDB No IMDB ID been added..
Category HD 720p
Rating
Size 781.20 MB
Show/Hide Files
10 files
AddDate 26/02/2017
Uploader ANONYMOUS
Speed 0 KB/sec
Down 2330 times
peers seeds: 32, leechers: 0 = 32 peers
Who thanked
Report
Reseed


14/09/2017 03.12 am

Thanks for posting. Looks good.
24/08/2017 07.46 am

Thank You..
13/05/2017 01.47 am

This was a really sad scene for many reasons. The saddest thing being the size of that guy's penis.
24/04/2017 01.20 am

Great stuff - thanks grin.gif
18/03/2017 03.06 pm

if she has smone money i think she wouldnt get into this joblaugh.giflaugh.giflaugh.gif sadddtongue.giftongue.giftongue.gif
11/03/2017 05.41 am

That was the saddest porn scene I've ever seen..
06/03/2017 07.40 am

Any names ?
01/03/2017 07.42 pm

Thanks!




ADS